MacMinds - great minds think different

Navigatie

Zoeken

Inloggegevens

Je bent niet ingelogd.


#1 23-02-2010 20:26

bungee
Geregistreerd: 23-02-2010

mp3 DJ mix met index

Ik heb een cd pre-master gemaakt van een dj mix. De mix bestaat uit 10 geindexeerde cd-tracks die in elkaar gemixt zijn.
Om de cd 'downloadbaar' te maken wil ik 'em tot Eén! mp3 file converteren MET de 10 cd indexen.
Hoe doe ik dit? Alvast bedankt.

Offline

 

#2 23-02-2010 21:05

rhbrgn
@ Winterswijk
Geregistreerd: 05-10-2006
Website

Re: mp3 DJ mix met index

Wat je precies bedoelt met de 10 indexen weet ik niet,
maar ik denk dat je met Audacity een heel eind moet kunnen komen.
Succes!


rhbrgn online, sinds 1972

Offline

 

#3 23-02-2010 23:26

bungee
Geregistreerd: 23-02-2010

Re: mp3 DJ mix met index

@rhbrgn: bedankt voor je reactie. Ik zie het bij de Audacity specs niet staan.
Met indexen bedoel ik dat je binnen de mp3 file bijvoorbeeld van het tweede naar het zevende nummer kunt skippen. Ik ben erachter gekomen dat men dit mbv van een zgn 'cue list' mogelijk maken. Deze wordt dan weer aan de mp3 geplakt. Hoe doet men dit???

Offline

 

#4 24-02-2010 01:47

unSOUND
Ex-Crew
@ Sliedrecht
Geregistreerd: 04-08-2006
Website

Re: mp3 DJ mix met index

Hoofdstukmarkeringen gaan in ieder geval niet met een MP3, een AAC bestand kan dat wel, en dan kun je zelfs op een iPod en iPhone naar het volgens nummer skippen... Een MP3 kan inderdaad worden voorzien van een CUE sheet, maar dat is meer bedoeld voor het branden van een CD, zodat de tracks op de juiste plek gesplitst worden...

Een CUE sheet is niks anders dan een tekstbestandje met start tijden, en namen, en kun je vrij makkelijk zelf maken. Je slaat het op als een platte tekst bestand, en verander daarna gewoon de extensie in .cue.  Een voorbeeld van een CUE sheet:

REM GENRE Trance
REM DATE 2005
REM DISCID CD123D0E
REM COMMENT "ExactAudioCopy v0.95b4"
PERFORMER "DJ Tiësto"
TITLE "In Search Of Sunrise 4 1"
FILE "DJ Tiësto - In Search Of Sunrise 4 1.ape" WAVE
  TRACK 01 AUDIO
    TITLE "Like A Waterfall"
    PERFORMER "Solar Stone & JES"
    INDEX 01 00:00:00
  TRACK 02 AUDIO
    TITLE "Moments"
    PERFORMER "ToneDepth & SoulTan"
    INDEX 01 07:15:22
  TRACK 03 AUDIO
    TITLE "Why"
    PERFORMER "Ahmet Ertenu"
    INDEX 01 12:46:50
  TRACK 04 AUDIO
    TITLE "Do What U Want (Max Graham AfterhoursIn Montreal Mix)"
    PERFORMER "JASEfos ft Claire Van Der Boom"
    INDEX 01 17:26:19
  TRACK 05 AUDIO
    TITLE "Wurz + Blosse"
    PERFORMER "Wighnomy Bros."
    INDEX 01 21:51:30
  TRACK 06 AUDIO
    TITLE "La Noche"
    PERFORMER "Coca & Villa"
    INDEX 01 25:02:45
  TRACK 07 AUDIO
    TITLE "Twelve (Dousk Mix)"
    PERFORMER "Tilt"
    INDEX 01 31:23:57
  TRACK 08 AUDIO
    TITLE "My World (Andy Moor Mix)"
    PERFORMER "Luminary"
    INDEX 01 36:46:00
  TRACK 09 AUDIO
    TITLE "Blend Forty 3 (Luke Chable & Steve May Remix)"
    PERFORMER "Steve May"
    INDEX 01 43:35:20
  TRACK 10 AUDIO
    TITLE "Arcadia"
    PERFORMER "Gabriel & Dresden"
    INDEX 01 47:58:04
  TRACK 11 AUDIO
    TITLE "Midnight Express"
    PERFORMER "Split Second"
    INDEX 01 52:06:16
  TRACK 12 AUDIO
    TITLE "The Force of Gravity (Tiësto Remix)"
    PERFORMER "BT"
    INDEX 01 59:08:45
  TRACK 13 AUDIO
    TITLE "The Loves We Lost"
    PERFORMER "Allure"
    INDEX 01 65:55:60
  TRACK 14 AUDIO
    TITLE "Perfect Silence (E-Craig's 212 Remix)"
    PERFORMER "Blank & Jones ft Bobo"
    INDEX 01 71:22:62


Waarom moeilijk doen als het lastig kan ?

Offline

 

#5 24-02-2010 07:52

sexybiggetje
Beheerder
@ Drachten
Geregistreerd: 18-09-2006
Website

Re: mp3 DJ mix met index

Helaas is het nadeel van .cue bestanden dat je ze bijna niet in mediaspelers gesupport ziet, anders dan Winamp voor Windows. Men zit dan dus met 1 groot bestand opgescheept zonder track data. De hoofdstukmarkeringen met AAC zijn dan weer door veel spelers anders dan iTunes  en Winamp niet te zien.
Je kunt natuurlijk ook twee formaten aanbieden smile


Sexybiggetje.nl :: cc-licensed by sexybiggetje.nl

Spreekt alleen wanneer ge iets te melden heeft.

Offline

 

#6 24-02-2010 11:10

bungee
Geregistreerd: 23-02-2010

Re: mp3 DJ mix met index

Met succes een AAC gemaakt met Garageband (Enhanced Podcast), kan er tof uitzien  en klinkt prima.
Erg bedankt voor jullie reacties.
Is AAC overigens precies hetzelfde als mp4a?

Offline

 

#7 24-02-2010 11:44

unSOUND
Ex-Crew
@ Sliedrecht
Geregistreerd: 04-08-2006
Website

Re: mp3 DJ mix met index

AAC en M4A zijn inderdaad hetzelfde.


Waarom moeilijk doen als het lastig kan ?

Offline

 

Forum voettekst

MacMinds v 1.05 Powered by PunBB